<?xml version="1.0" standalone="no"?>
<!DOCTYPE svg PUBLIC "-//W3C//DTD SVG 1.1//EN" "http://www.w3.org/Graphics/SVG/1.1/DTD/svg11.dtd" >
<svg xmlns="http://www.w3.org/2000/svg">
  <metadata>Created by iconfont</metadata>
  <defs>
  <font id="iconfont" horiz-adv-x="1024">
    <font-face
      font-family="iconfont"
      font-weight="400"
      font-stretch="normal"
      units-per-em="1024"
      ascent="896"
      descent="-128"
    />
      <missing-glyph />
      
      <glyph glyph-name="lihe" unicode="&#58881;" d="M537.363692 678.990769l125.636923 115.475693c14.572308 13.233231 15.753846 35.682462 2.756923 50.530461a35.367385 35.367385 0 0 1-50.018461 2.363077l-102.4-94.208-102.4 94.247385a34.894769 34.894769 0 0 1-49.624615-2.402462c-12.996923-14.848-11.815385-37.297231 2.363076-50.530461l126.03077-115.475693c6.695385-6.419692 14.966154-9.255385 23.630769-9.255384 8.270769 0 16.541538 2.835692 24.024615 9.255384zM918.449231 408.654769H105.156923c-36.233846 0-65.772308 30.089846-65.772308 66.953846V639.212308c0 36.903385 29.538462 66.953846 65.772308 66.953846h813.686154c36.233846 0 65.772308-30.050462 65.772308-66.953846v-163.603693c0-36.864-29.538462-66.953846-66.166154-66.953846z m-14.966154 82.589539v132.332307H120.123077v-132.332307zM915.456-60.65230799999995v484.43077c0 22.843077-18.116923 41.314462-40.566154 41.314461-22.449231 0-40.566154-18.471385-40.566154-41.353846v-469.149539H182.153846V423.778462c0 22.843077-18.116923 41.314462-40.566154 41.314461-22.449231 0-40.566154-18.471385-40.566154-41.353846v-484.352c0-36.903385 29.538462-67.347692 65.772308-67.347692h682.929231c36.233846 0 65.772308 30.444308 65.772308 67.347692zM553.826462-86.64615400000002V638.739692c0 22.843077-18.116923 41.314462-40.566154 41.314462-22.449231 0-40.566154-18.471385-40.566154-41.353846V-86.64615400000002c0-22.843077 18.116923-41.275077 40.566154-41.275077 22.449231 0 40.566154 18.432 40.566154 41.275077z"  horiz-adv-x="1024" />
      
      <glyph glyph-name="saoyisao" unicode="&#58882;" d="M75.2 543.8769234399999C53.41538469 543.8769234399999 32 561.96923062 32 584.1230765600001V763.93846125C32 819.32307656 76.67692344 864 132.06153875 864h179.81538469c22.15384594 0 40.24615406-23.63076937 40.24615312-45.41538469 0-22.15384594-18.09230813-41.35384594-40.24615312-41.35384593H139.81538469c-11.07692344 0-19.93846125-8.86153875-19.93846125-19.93846125v-173.16923157c0-22.15384594-22.52307656-40.24615406-44.67692344-40.24615312z m871.75384594 0.36923062c-21.04615406 1.10769187-43.93846125 19.2-43.93846125 40.61538469V757.29230813c0 11.07692344-9.23076937 19.93846125-19.93846125 19.93846125h-170.21538469c-21.41538469 0-39.13846125 19.56923062-40.61538469 40.61538468C670.4 841.10769188 689.23076937 864 712.12307656 864h179.81538469C947.32307656 864 992 819.32307656 992 763.93846125v-179.81538469c0-22.89230813-21.78461531-41.72307656-45.04615406-39.8769225zM891.93846125-96h-179.0769225c-21.41538469 0-39.13846125 20.67692344-40.61538469 41.72307656-1.84615406 23.26153875 16.98461531 48.36923063 39.8769225 48.36923156h170.95384688c11.07692344 0 19.93846125 8.86153875 19.93846125 19.93846125v169.10769188c0 21.41538469 20.67692344 39.50769187 41.72307656 40.61538469 23.26153875 1.84615406 47.26153875-16.98461531 47.26153875-39.8769225v-179.81538469c0-55.38461531-45.04615406-100.06153875-100.06153875-100.06153875zM311.87692344-96H132.06153875C76.67692344-96 32-51.323076560000004 32 4.061538749999954v179.0769225c0 21.41538469 21.78461531 39.50769187 42.83076938 40.61538469 23.26153875 1.84615406 46.15384594-16.98461531 46.15384593-39.8769225v-169.84615406c0-11.07692344 8.86153875-19.93846125 19.93846125-19.93846125h170.21538469c21.41538469 0 39.13846125-24 40.61538469-45.04615407 1.84615406-23.26153875-16.98461531-45.04615406-39.8769225-45.04615406zM955.07692344 384.99692344c0 25.10769188-16.61538469 45.41538469-36.9230775 45.41538468H105.84615406c-20.30769187 0-36.92307656-20.30769187-36.9230775-45.41538468 0-24.73846125 16.61538469-45.04615406 36.9230775-45.04615407h812.30769188c20.30769187 0 36.92307656 20.30769187 36.9230775 45.04615407z"  horiz-adv-x="1024" />
      
      <glyph glyph-name="daifukuan" unicode="&#58883;" d="M924.868923 249.147077h-427.716923c-46.08 0-83.495385 37.809231-83.495385 84.322461v103.424c0 46.552615 37.415385 84.322462 83.495385 84.322462h427.716923c45.686154 0 83.101538-37.809231 83.101539-84.283077v-103.463385c0-46.552615-37.415385-84.322462-83.101539-84.322461z m-448.590769 187.746461v-103.424c0-11.539692 9.452308-21.070769 20.873846-21.070769h427.716923c11.421538 0 20.48 9.531077 20.48 21.070769v103.424a20.795077 20.795077 0 0 1-20.48 21.07077h-427.716923c-11.421538 0-20.873846-9.531077-20.873846-21.07077z m350.916923-51.712c0 11.145846 5.907692 21.897846 15.753846 27.451077a31.074462 31.074462 0 0 0 31.113846 0c9.846154-5.553231 15.753846-16.305231 15.753846-27.451077s-5.907692-21.858462-15.753846-27.451076a31.074462 31.074462 0 0 0-31.113846 0 31.625846 31.625846 0 0 0-15.753846 27.451076zM889.698462 682.811077v-103.817846a31.113846 31.113846 0 1 0-62.227693 0V682.811077c0 40.566154-32.689231 73.609846-73.255384 73.609846H135.483077c-40.172308 0-72.861538-33.043692-72.861539-73.609846v-595.101539c0-40.96 32.689231-73.964308 72.861539-73.964307h618.732308c40.566154 0 73.255385 33.004308 73.255384 74.003692v103.384615c0 17.526154 13.784615 31.822769 31.113846 31.82277 17.329231 0 31.113846-14.296615 31.113847-31.82277v-103.424c0-75.579077-60.652308-136.822154-135.483077-136.822153H135.483077c-74.830769 0-135.483077 61.243077-135.483077 136.822153V682.811077c0 75.618462 60.652308 136.861538 135.483077 136.861538h618.732308c74.830769 0 135.483077-61.282462 135.483077-136.861538z m-62.227693-297.550769c0 11.145846 5.907692 21.504 15.36 27.451077a31.783385 31.783385 0 0 0 31.507693 0c9.452308-5.947077 15.36-16.305231 15.36-27.451077 0-11.539692-5.907692-21.858462-15.36-27.451077a31.783385 31.783385 0 0 0-31.507693 0 31.625846 31.625846 0 0 0-15.36 27.451077z"  horiz-adv-x="1024" />
      
      <glyph glyph-name="circle_guanbi" unicode="&#58880;" d="M922.51355363 106.38898061999998L922.58341091 106.38898061999998 922.58341091 106.80929165999999ZM985.14098403 384.00232903c0 260.91037127-212.27194482 473.13341667-473.13225158 473.13341668-260.92550713 0-473.14855253-212.22304541-473.14855254-473.13341668 0-260.89290638 212.22304541-473.13458062 473.14855254-473.13458062C772.86787413-89.13225159000001 985.14098403 123.10942150999995 985.14098403 384.00232903M512.00873245-21.24453546999996c-223.43171299 0-405.24570055 181.84775111-405.24570056 405.2468645 0 223.43054905 181.81398642 405.22823566 405.24570056 405.22823566 223.39678435 0 405.21309981-181.79768661 405.2130998-405.22823566C917.22183225 160.60321565000004 735.4055168-21.24453546999996 512.00873245-21.24453546999996M705.8533797 235.82948352000005L559.55621319 382.56093183999997 705.71948601 527.09884814c13.26830592 13.10064754 13.36843605 34.51203357 0.26662343 47.78150457-13.10064754 13.28577081-34.54579826 13.38706489-47.81643321 0.25265152L511.87367367 430.4262656 367.75606841 574.9979465900001c-13.20077767 13.20194162-34.5807269 13.26830592-47.81526926 0.06752939-13.20194162-13.21940651-13.20194162-34.59702784-0.06752939-47.8001334l143.94994688-144.37025792L318.73458973 239.38291143000004c-13.26947101-13.13441223-13.40336469-34.4805979-0.26778738-47.7523968 6.63415353-6.70168178 15.28020878-10.05019477 23.99146439-10.05019477 8.57852587 0 17.22225209 3.28214755 23.79120526 9.74980665l145.28888718 143.71476024L657.9694171 188.07941460999996c6.60155278-6.59922489 15.2790437-9.91863011 23.9576997-9.91863011 8.64605525 0 17.25485283 3.31940523 23.85756957 9.85226467C718.98779193 201.18006215000003 719.01922873 222.56117645999996 705.8533797 235.82948352000005"  horiz-adv-x="1024" />
      
      <glyph glyph-name="shuaxin" unicode="&#58960;" d="M932 273c-12 3-24-3-30-12-72-192-300-288-510-213-210 75-321 288-249 480 72 192 300 288 510 213 87-30 162-87 210-162l-87 0c-12 0-24-9-24-21 0-12 9-21 24-21l144 0c12 0 24 9 24 21l0 132c0 12-9 21-24 21-12 0-24-9-24-21l0-84c-54 81-132 141-231 177-234 81-486-27-570-240-81-216 42-456 276-537 234-81 486 27 570 240C950 255 944 267 932 273z"  horiz-adv-x="1024" />
      
      <glyph glyph-name="yanjing" unicode="&#58903;" d="M512 622.7473783099999c-210.02588918 0-393.12538231-96.10652128-490.33657627-238.74737831 97.07310987-142.64085703 280.31068708-238.74737831 490.33657627-238.74737831S905.12538231 241.35914297 1002.33657627 384c-97.21119393 142.64085703-280.31068708 238.74737831-490.33657627 238.74737831z m0-407.20995873c-162.3868808 0-304.06114924 67.79928442-379.17889002 168.46258042 75.11774077 100.663296 216.79200922 168.46258042 379.17889002 168.46258042s304.06114924-67.79928442 379.17889002-168.46258042c-75.11774077-100.663296-216.79200922-168.46258042-379.17889002-168.46258042zM512 384m-74.00321961 0a74.00321961 74.00321961 0 1 1 148.00643922 0 74.00321961 74.00321961 0 1 1-148.00643922 0Z"  horiz-adv-x="1024" />
      
      <glyph glyph-name="guanbi" unicode="&#60146;" d="M594.85044939 384l359.01861355-359.01861357-82.85044937-82.85044937-359.01861357 359.01861355L152.98138643-57.86906294000005 70.13093706 24.981386430000043l359.01861355 359.01861357L70.13093706 743.0186135700001 152.98138643 825.86906294l359.01861357-359.01861355L871.01861357 825.86906294 953.86906294 743.0186135700001 594.85044939 384z"  horiz-adv-x="1024" />
      
      <glyph glyph-name="aixin" unicode="&#59587;" d="M678.1724448 804.97777813C854.25493333 804.97777813 967.11111147 663.7795552 967.11111147 473.74791147c0-147.46737813-133.43857813-309.87377813-396.3448896-492.36195627a103.2192 103.2192 0 0 0-117.53244374 0C190.32746667 163.87413332999995 56.88888853 326.28053333 56.88888853 473.74791147 56.88888853 663.7795552 169.74506667 804.97777813 345.8275552 804.97777813c63.5904 0 106.7235552-22.2208 166.1724448-72.63573333C571.46026667 782.7456 614.5820448 804.97777813 678.1724448 804.97777813z"  horiz-adv-x="1024" />
      
      <glyph glyph-name="shousuo" unicode="&#59710;" d="M527.39 773.97c-4.14 3.96-9.72 6.21-15.48 6.21-5.76 0-11.34-2.25-15.48-6.21m-0.09 0l-416.69999999-399.06c-18.36-17.55-17.19-46.71 1.07999999-64.17s47.79-17.55 66.06000001-0.09l365.03999999 349.2 364.95-349.2c18.36-17.55 47.88-17.37 66.06 0.09C961.19 328.11 962.36 357.35999999 944 374.82000000000005l-416.7 399.06-30.96 0z m0 0M527.66 464.28c-4.14 3.96-9.72 6.12-15.47999999 6.12-5.76 0-11.34-2.25-15.48000001-6.12m-0.09 0l-416.7-399.06c-18.36-17.55-17.19-46.71 1.08000001-64.17s47.79-17.55 66.05999999-0.09l365.04 349.19999999 365.04-349.19999999c18.36-17.55 47.88-17.37 66.06 0.08999999C961.46 18.50999999999999 962.63 47.75999999999999 944.27 65.22000000000003l-416.7 399.06-30.96 0z m0 0"  horiz-adv-x="1024" />
      
      <glyph glyph-name="xiajiantou" unicode="&#59711;" d="M31.99 611.03c0 17.36 7.39 34.59 21.72 46.63 25.74 21.6 64.09000001 18.24 85.69-7.47999999l387.35-461.52000001 360.75 429.8c21.6 25.74 59.95 29.09 85.69000001 7.48 25.74-21.62 29.07-59.95 7.47999999-85.69l-407.33-485.3c-11.56-13.76-28.61-21.72-46.59-21.72s-35.02 7.96-46.59 21.72L46.23 571.97c-9.57 11.41-14.24 25.28-14.24 39.06z"  horiz-adv-x="1024" />
      
      <glyph glyph-name="wujiaoxing" unicode="&#58950;" d="M773.75-90.75c-8.25 0-15.75 2.25-23.25 6l-210 115.5c-9 4.5-18.75 7.5-28.5 7.5-9.75 0-19.5-2.25-28.5-7.5l-210-115.5c-7.5-3.75-15-6-23.25-6-14.25 0-28.5 6.75-38.25 18-10.5 12-14.25 27.75-12 44.25l40.5 244.5c3.75 20.25-3 41.25-17.25 55.5L52.25 445.5A54 54 0 0 0 39.5 501c6 18.75 21.75 32.25 40.5 35.25l234.75 36c19.5 3 36.75 15.75 45.75 34.5l105 222.75C474.5 848.25 491 858.75 511.25 858.75c19.5 0 36.75-11.25 45-29.25l105-222.75c9-18.75 26.25-31.5 45.75-34.5l234.75-36c18.75-3 34.5-15.75 40.5-35.25 6.75-19.5 1.5-41.25-12.75-55.5l-170.25-173.25c-14.25-14.25-21-35.25-17.25-55.5l40.5-244.5c3-16.5-1.5-32.25-12-44.25-8.25-12-21.75-18.75-36.75-18.75zM512 84.75c18 0 35.25-4.5 51-12.75l222-122.25-6 13.5v0.75l-39.75 244.5c-6 35.25 5.25 71.25 30 96L939.5 477.75c2.25 2.25 3 6 1.5 9v3l-240 36.75c-35.25 5.25-65.25 27.75-81 60.75L512 816.75 403.25 587.25c-15.75-33-45.75-55.5-81-60.75L78.5 489l5.25-5.25c0-1.5 0.75-3.75 2.25-6l170.25-173.25c24.75-24.75 36-60.75 30-96L245.75-36v-3.75l1.5-6.75 214.5 117.75c15 9 32.25 13.5 50.25 13.5z"  horiz-adv-x="1024" />
      
      <glyph glyph-name="gengduo" unicode="&#58942;" d="M496.61-5.970000000000027c4.14-3.96 9.72-6.21 15.48-6.21 5.76 0 11.34 2.25 15.48 6.21m0.09 0l416.7 399.06c18.36 17.55 17.19 46.71-1.08 64.17s-47.79 17.55-66.06 0.09l-365.04-349.2-364.95 349.2c-18.36 17.55-47.88 17.37-66.06-0.09C62.81 439.89 61.64 410.64 80 393.18l416.7-399.06h30.96z m0 0M496.34 303.72c4.14-3.96 9.72-6.12 15.48-6.12 5.76 0 11.34 2.25 15.48 6.12m0.09 0l416.7 399.06c18.36 17.55 17.19 46.71-1.08 64.17s-47.79 17.55-66.06 0.09l-365.04-349.2-365.04 349.2c-18.36 17.55-47.88 17.37-66.06-0.09C62.54 749.49 61.37 720.24 79.73 702.78l416.7-399.06h30.96z m0 0"  horiz-adv-x="1024" />
      
      <glyph glyph-name="xinxi" unicode="&#59709;" d="M512-42.66666699999996a21.266667 21.266667 0 0 0-15.086667 6.246667L375.166667 85.33333300000004H128a85.426667 85.426667 0 0 0-85.333333 85.333334V682.666667a85.426667 85.426667 0 0 0 85.333333 85.333333h768a85.426667 85.426667 0 0 0 85.333333-85.333333v-512a85.426667 85.426667 0 0 0-85.333333-85.333334H648.833333l-121.746666-121.753333A21.266667 21.266667 0 0 0 512-42.66666699999996zM128 725.333333a42.713333 42.713333 0 0 1-42.666667-42.666666v-512a42.713333 42.713333 0 0 1 42.666667-42.666667h256a21.333333 21.333333 0 0 0 15.086667-6.246667L512 8.833333000000039l112.913333 112.92A21.333333 21.333333 0 0 0 640 128h256a42.713333 42.713333 0 0 1 42.666667 42.666667V682.666667a42.713333 42.713333 0 0 1-42.666667 42.666666z"  horiz-adv-x="1024" />
      
      <glyph glyph-name="zuojiantou" unicode="&#58922;" d="M739.03 864.01c17.36 0 34.59-7.39 46.63-21.72 21.6-25.74 18.24-64.09000001-7.47999999-85.69l-461.52000001-387.35 429.8-360.75c25.74-21.6 29.09-59.95 7.48-85.69000001-21.62-25.74-59.95-29.07-85.69-7.47999999l-485.3 407.33c-13.76 11.56-21.72 28.61-21.72 46.59s7.96 35.02 21.72 46.59L699.97 849.77c11.41 9.57 25.28 14.24 39.06 14.24z"  horiz-adv-x="1024" />
      
      <glyph glyph-name="shangchuan" unicode="&#59025;" d="M502.89777778 715.83288889a35.89916445 35.89916445 0 0 1-36.40888888-35.31662222v-494.14144a36.40888889 36.40888889 0 0 1 72.81777778 0V680.51626667a35.89916445 35.89916445 0 0 1-36.4088889 35.31662222z m0 85.41525333L258.95822223 560.51256889a34.58844445 34.58844445 0 0 1 7.28177778-49.44327111 37.35552 37.35552 0 0 1 43.69066667 0L502.89777778 701.70624 695.8648889 515.5840000000001a35.75352889 35.75352889 0 0 1 49.37045333-1.52917333l1.60199111 1.52917333a33.86026667 33.86026667 0 0 1 0 48.71509334zM903.39555556-1.4222222199999806H102.40000001a62.04074667 62.04074667 0 0 0-72.81777778 72.81777778v136.16924444a36.40888889 36.40888889 0 0 0 72.81777778 0V71.39555556000005h800.99555555v136.16924444a36.40888889 36.40888889 0 0 0 72.81777778 0V71.39555556000005a76.60430222 76.60430222 0 0 0-72.81777778-72.81777778z"  horiz-adv-x="1024" />
      
      <glyph glyph-name="youjiantou" unicode="&#59712;" d="M284.97-96.00999999999999c-17.36 0-34.59 7.39-46.63 21.72-21.6 25.74-18.24 64.09000001 7.47999999 85.69l461.52000001 387.35-429.8 360.75c-25.74 21.6-29.09 59.95-7.48 85.69000001 21.62 25.74 59.95 29.07 85.69 7.47999999l485.3-407.33c13.76-11.56 21.72-28.61 21.72-46.59s-7.96-35.02-21.72-46.59L324.03-81.76999999999998c-11.41-9.57-25.28-14.24-39.06-14.24z"  horiz-adv-x="1024" />
      
      <glyph glyph-name="huidingbu" unicode="&#58988;" d="M542.800839 682.440692c-5.525732 5.525732-11.665434 8.18627-17.805136 9.618867-4.093135 2.046567-8.902568 2.762866-13.712002 2.762866-4.809433 0-9.618867-0.716299-13.712002-2.762866-6.139702-1.330269-12.381733-4.093135-17.805136-9.618867L143.617867 346.394324c-15.04227-15.04227-15.04227-38.373139 0-53.517738 15.04227-15.04227 38.373139-15.04227 53.517738 0L476.901369 572.64235l0-598.006995c0-19.237734 15.04227-34.280004 34.280004-34.280004 19.237734 0 34.280004 15.04227 34.280004 34.280004L545.461377 572.64235l279.765764-279.765764c15.04227-15.04227 38.373139-15.04227 53.517738 0 15.04227 15.04227 15.04227 38.373139 0 53.517738L542.800839 682.440692 542.800839 682.440692zM922.746078 831.94244 99.718997 831.94244c-19.237734 0-34.280004-15.04227-34.280004-34.280004 0-19.237734 15.04227-34.280004 34.280004-34.280004l822.924753 0c19.237734 0 34.280004 15.04227 34.280004 34.280004C957.026082 816.797842 941.881483 831.94244 922.746078 831.94244L922.746078 831.94244z"  horiz-adv-x="1024" />
      
      <glyph glyph-name="qianbao" unicode="&#58895;" d="M785.2-30.8H206.8c-87 0-157.7 70.8-157.7 157.7V641.2c0 86.9 70.7 157.7 157.7 157.7h578.3c87 0 157.7-70.8 157.7-157.7v-96c0-17.7-14.3-32-32-32s-32 14.3-32 32v96c0 51.7-42 93.7-93.7 93.7H206.8c-51.7 0-93.7-42-93.7-93.7v-514.3c0-51.7 42-93.7 93.7-93.7h578.3c51.7 0 93.7 42 93.7 93.7v98.3c0 17.7 14.3 32 32 32s32-14.3 32-32v-98.3c0-87-70.7-157.7-157.6-157.7zM942.8 225.2h-256c-88.2 0-160 71.8-160 160s71.8 160 160 160h256c17.7 0 32-14.3 32-32v-256c0-17.7-14.3-32-32-32z m-256 256c-52.9 0-96-43.1-96-96s43.1-96 96-96h224v192h-224z"  horiz-adv-x="1024" />
      
      <glyph glyph-name="vip" unicode="&#59158;" d="M507.4944-52.224000000000046c-9.0112 0-17.6128 4.096-23.3472 10.6496L35.6352 483.5328c-9.8304 11.4688-9.8304 28.2624-0.4096 39.7312l238.3872 286.3104c5.7344 6.9632 14.336 11.0592 23.7568 11.0592h429.2608c9.0112 0 17.6128-4.096 23.7568-11.0592L988.7744 523.264c9.8304-11.4688 9.4208-28.672-0.4096-39.7312L530.8416-41.57439999999997c-5.7344-6.9632-14.336-10.6496-23.3472-10.6496zM99.1232 503.6032L507.904 25.600000000000023 924.8768 503.6032l-212.5824 255.1808H311.7056L99.1232 503.6032zM509.952 181.24800000000005c-9.0112 0-17.6128 4.096-23.3472 10.6496l-213.8112 251.0848c-11.0592 13.1072-9.4208 32.3584 3.2768 43.4176 13.1072 11.0592 32.3584 9.4208 43.4176-3.2768l190.464-223.6416 194.56 224.0512c11.0592 12.6976 30.72 14.336 43.4176 2.8672 12.6976-11.0592 14.336-30.72 2.8672-43.4176l-217.9072-251.0848c-5.7344-6.9632-13.9264-10.6496-22.9376-10.6496z"  horiz-adv-x="1024" />
      
      <glyph glyph-name="hezuo" unicode="&#59255;" d="M770.54315751 169.36421062l-116.5642097 116.56421063a40.42105219 40.42105219 0 0 0 57.14526282 57.14526281l116.56421062-116.56421062 62.50105219 62.50105312-415.37684156 415.37684156a202.50947344 202.50947344 0 0 1-286.38315844-286.33263093l415.3768425-415.42736907 65.68421062 65.68421063-116.56421062 116.56421062a40.42105219 40.42105219 0 0 0 57.14526281 57.14526282l116.56421062-116.5642097 43.90736812 43.90736813z m-140.5642097-253.13684249a40.42105219 40.42105219 0 0 0-55.57894781 1.51578938l-443.11578937 443.1157903a283.35157875 283.35157875 0 1 0 400.67368406 400.67368406l71.84842125-71.79789468 76.74947344 76.69894687a283.35157875 283.35157875 0 1 0 400.67368406-400.67368406l-443.01473625-443.01473719a45.62526281 45.62526281 0 0 0-8.23578938-6.5684203z m31.0231575 716.31157968l286.33263188-286.33263187 76.8 76.69894687a202.50947344 202.50947344 0 0 1-286.433685 286.38315844L661.05263188 632.58947344z"  horiz-adv-x="1239" />
      
    </font>
</defs>
</svg>
